<?xml version="1.0" encoding="UTF-8" standalone="no"?>
<!-- Creator: CorelDRAW -->

<svg
   xml:space="preserve"
   width="281.0444mm"
   height="91.594246mm"
   version="1.1"
   style="clip-rule:evenodd;fill-rule:evenodd;image-rendering:optimizeQuality;shape-rendering:geometricPrecision;text-rendering:geometricPrecision"
   viewBox="0 0 28104.44 9159.4246"
   id="svg32"
   sodipodi:docname="forechalle_toplogo-2.svg"
   inkscape:version="1.3.2 (091e20e, 2023-11-25, custom)"
   xmlns:inkscape="http://www.inkscape.org/namespaces/inkscape"
   xmlns:sodipodi="http://sodipodi.sourceforge.net/DTD/sodipodi-0.dtd"
   xmlns="http://www.w3.org/2000/svg"
   xmlns:svg="http://www.w3.org/2000/svg"><sodipodi:namedview
   id="namedview32"
   pagecolor="#505050"
   bordercolor="#eeeeee"
   borderopacity="1"
   inkscape:showpageshadow="0"
   inkscape:pageopacity="0"
   inkscape:pagecheckerboard="0"
   inkscape:deskcolor="#505050"
   inkscape:document-units="mm"
   inkscape:zoom="1.0243155"
   inkscape:cx="552.56414"
   inkscape:cy="158.64253"
   inkscape:window-width="1920"
   inkscape:window-height="1009"
   inkscape:window-x="1912"
   inkscape:window-y="-8"
   inkscape:window-maximized="1"
   inkscape:current-layer="レイヤ_x0020_1" />
 <defs
   id="defs25">
  <font
   id="FontID2"
   horiz-adv-x="660"
   font-variant="normal"
   style="fill-rule:nonzero"
   font-weight="900"
   horiz-origin-x="0"
   horiz-origin-y="0"
   vert-origin-x="512"
   vert-origin-y="768"
   vert-adv-y="1024">
	<font-face
   font-family="Rounded-X M+ 1c black"
   id="font-face1">
		<font-face-src>
			<font-face-name
   name="Rounded-X M+ 1c black" />
		</font-face-src>
	</font-face>
   <missing-glyph
   id="missing-glyph1"><path
     d="M0 0z"
     id="path1" /></missing-glyph>
   <glyph
   unicode="ォ"
   horiz-adv-x="1000"
   d="M773 524c19.3346,0 36,-7 50,-21 14,-14 21,-30.6654 21,-50 0,-19.3346 -7,-36 -21,-50 -14,-14 -30.6654,-21 -50,-21l-52 0c-7.33465,0 -11,-3.66535 -11,-11l0 -255c0,-27.3346 -0.5,-48.6654 -1.5,-64 -1,-15.3346 -3.83465,-29.8346 -8.5,-43.5 -4.66535,-13.6654 -10,-23.3346 -16,-29 -6,-5.66535 -16.1654,-10.6654 -30.5,-15 -14.3346,-4.33465 -29.5,-6.83465 -45.5,-7.5 -16,-0.665354 -38.6654,-1 -68,-1 -16,0 -38,1 -66,3 -18.6654,0.665354 -34,8 -46,22 -12,14 -17.3346,30.3346 -16,49 0.665354,18 8,32.8346 22,44.5 14,11.6654 30,16.8346 48,15.5 13.3346,-1.33465 27.3346,-2 42,-2 13.3346,0 21.3346,1.33465 24,4 2.66535,2.66535 4,10.6654 4,24l0 125c0,2.66535 -1,4.5 -3,5.5 -2,1 -4,0.834646 -6,-0.5 -74.6654,-60.6654 -155.665,-118 -243,-172 -17.3346,-10.6654 -36,-13.5 -56,-8.5 -20,5 -35.3346,16.1654 -46,33.5 -10,17.3346 -12.5,35.6654 -7.5,55 5,19.3346 16.1654,34.3346 33.5,45 76,46 156.665,104.665 242,176 2.66535,2 3,4 1,6 -0.665354,0.665354 -1.66535,1 -3,1l-221 0c-19.3346,0 -36,7 -50,21 -14,14 -21,30.6654 -21,50 0,19.3346 7,36 21,50 14,14 30.6654,21 50,21l298 0c7.33465,0 11,3.66535 11,11l0 22c0,22 7.66535,40.6654 23,56 15.3346,15.3346 34,23 56,23 22,0 40.6654,-7.66535 56,-23 15.3346,-15.3346 23,-34 23,-56l0 -22c0,-7.33465 3.66535,-11 11,-11l52 0z"
   id="glyph1" />
   <glyph
   unicode="ジ"
   horiz-adv-x="1000"
   d="M839 590c23.3346,-4 41.5,-15.6654 54.5,-35 13,-19.3346 16.5,-40 10.5,-62 -44.6654,-169.335 -119,-296 -223,-380 -104,-84 -253,-138.665 -447,-164 -23.3346,-2.66535 -44.5,3.33465 -63.5,18 -19,14.6654 -30.5,33.6654 -34.5,57l-2 12c-4,22.6654 1,43 15,61 14,18 32.6654,28.6654 56,32 154.665,20 270.835,59.5 348.5,118.5 77.6654,59 134.165,151.165 169.5,276.5 6.66535,23.3346 19.8346,41.5 39.5,54.5 19.6654,13 41.1654,17.5 64.5,13.5l12 -2zm-126 212c13.3346,6.66535 26.8346,7.66535 40.5,3 13.6654,-4.66535 24.1654,-13.6654 31.5,-27 3.33465,-6 8,-14.8346 14,-26.5 6,-11.6654 10.6654,-20.5 14,-26.5 6.66535,-13.3346 7.66535,-26.8346 3,-40.5 -4.66535,-13.6654 -13.6654,-23.5 -27,-29.5 -12.6654,-6 -25.8346,-6.66535 -39.5,-2 -13.6654,4.66535 -23.8346,13.3346 -30.5,26 -3.33465,6 -8,14.8346 -14,26.5 -6,11.6654 -10.6654,20.5 -14,26.5 -6.66535,12.6654 -7.83465,25.8346 -3.5,39.5 4.33465,13.6654 12.8346,23.8346 25.5,30.5zm225 -9c3.33465,-6.66535 8.16535,-16.3346 14.5,-29 6.33465,-12.6654 10.8346,-21.6654 13.5,-27 6.66535,-13.3346 7.66535,-26.6654 3,-40 -4.66535,-13.3346 -13.6654,-23.3346 -27,-30 -13.3346,-6.66535 -26.8346,-7.66535 -40.5,-3 -13.6654,4.66535 -24.1654,13.6654 -31.5,27 -6,12 -15.6654,30 -29,54 -6.66535,13.3346 -7.83465,26.8346 -3.5,40.5 4.33465,13.6654 13.1654,23.8346 26.5,30.5 13.3346,6.66535 27.3346,7.66535 42,3 14.6654,-4.66535 25.3346,-13.3346 32,-26zm-604 -461c-90,18 -147.665,29.3346 -173,34 -22,4 -39.1654,15.1654 -51.5,33.5 -12.3346,18.3346 -16.1654,38.5 -11.5,60.5 5.33465,22.6654 17.3346,40.3346 36,53 18.6654,12.6654 39.3346,17 62,13 30,-5.33465 88,-16.6654 174,-34 22,-4.66535 39.1654,-16.5 51.5,-35.5 12.3346,-19 15.8346,-39.5 10.5,-61.5 -4.66535,-22 -16.6654,-39.1654 -36,-51.5 -19.3346,-12.3346 -40,-16.1654 -62,-11.5zm-87 434c22,-4 80.3346,-15.3346 175,-34 23.3346,-4.66535 41.3346,-16.6654 54,-36 12.6654,-19.3346 16.6654,-40.3346 12,-63 -5.33465,-22.6654 -17.6654,-40.5 -37,-53.5 -19.3346,-13 -40.3346,-17.1654 -63,-12.5 -67.3346,13.3346 -125.665,24.6654 -175,34 -22.6654,4 -40.3346,15.5 -53,34.5 -12.6654,19 -16.6654,39.8346 -12,62.5 5.33465,23.3346 17.5,41.5 36.5,54.5 19,13 39.8346,17.5 62.5,13.5z"
   id="glyph2" />
   <glyph
   unicode="ス"
   horiz-adv-x="1000"
   d="M667 309c55.3346,-48 119,-105 191,-171 17.3346,-16 26.1654,-35.5 26.5,-58.5 0.334646,-23 -7.83465,-42.8346 -24.5,-59.5l-10 -10c-16.6654,-16.6654 -36.6654,-25.1654 -60,-25.5 -23.3346,-0.334646 -43.6654,7.5 -61,23.5 -72.6654,68 -135.665,125.335 -189,172 -4.66535,4 -10,3.66535 -16,-1 -86.6654,-76.6654 -181,-141 -283,-193 -21.3346,-10.6654 -43.3346,-12.1654 -66,-4.5 -22.6654,7.66535 -39.6654,22.1654 -51,43.5l-3 6c-10.6654,20 -12.6654,40.8346 -6,62.5 6.66535,21.6654 20,38.1654 40,49.5 194.665,105.335 346,246.335 454,423 1.33465,2 1.33465,4 0,6 -1.33465,2 -3.33465,3 -6,3l-348 0c-23.3346,0 -43.3346,8.33465 -60,25 -16.6654,16.6654 -25,36.6654 -25,60l0 5c0,23.3346 8.33465,43.3346 25,60 16.6654,16.6654 36.6654,25 60,25l490 0c23.3346,0 43.3346,-8.33465 60,-25 16.6654,-16.6654 25,-36.6654 25,-60l0 -5c0,-60.6654 -13.3346,-114.335 -40,-161 -32.6654,-57.3346 -74,-115.665 -124,-175 -4,-5.33465 -3.66535,-10.3346 1,-15z"
   id="glyph3" />
   <glyph
   unicode="タ"
   horiz-adv-x="1000"
   d="M795 710c23.3346,0 43.5,-8.33465 60.5,-25 17,-16.6654 25.1654,-36.6654 24.5,-60 -4.66535,-216 -54.3346,-377.5 -149,-484.5 -94.6654,-107 -243.665,-174.165 -447,-201.5 -24,-2.66535 -45.5,3.16535 -64.5,17.5 -19,14.3346 -30.5,33.5 -34.5,57.5l0 2c-4,22.6654 0.834646,43.3346 14.5,62 13.6654,18.6654 32.1654,29.6654 55.5,33 119.335,19.3346 209.335,51.3346 270,96 2,1.33465 3,3.66535 3,7 0,3.33465 -1.33465,5.33465 -4,6 -54.6654,26.6654 -95.3346,46.3346 -122,59 -20.6654,10 -34.6654,26 -42,48 -7.33465,22 -5.33465,43 6,63l8 15c11.3346,21.3346 28.6654,35.8346 52,43.5 23.3346,7.66535 45.6654,6.16535 67,-4.5 47.3346,-22 93.6654,-44.6654 139,-68 6.66535,-4 11.3346,-2 14,6 13.3346,42 22.6654,91 28,147 0.665354,2.66535 0,5.16535 -2,7.5 -2,2.33465 -4.66535,3.5 -8,3.5l-259 0 -7 0c-8,1.33465 -13.6654,-1.66535 -17,-9 -32.6654,-70.6654 -77,-138.665 -133,-204 -15.3346,-18 -35,-27.5 -59,-28.5 -24,-1 -45,6.5 -63,22.5l-2 3c-17.3346,15.3346 -26.5,34.6654 -27.5,58 -1,23.3346 5.5,44 19.5,62 63.3346,80.6654 109,172 137,274 6.66535,23.3346 19.5,42.3346 38.5,57 19,14.6654 40.1654,21.3346 63.5,20l10 0c20,-0.665354 37.1654,-8.16535 51.5,-22.5 14.3346,-14.3346 21.8346,-31.1654 22.5,-50.5 0,-8 3.33465,-12 10,-12l346 0z"
   id="glyph4" />
   <glyph
   unicode="チ"
   horiz-adv-x="1000"
   d="M855 440c23.3346,0 43.3346,-8.33465 60,-25 16.6654,-16.6654 25,-36.6654 25,-60 0,-23.3346 -8.33465,-43.3346 -25,-60 -16.6654,-16.6654 -36.6654,-25 -60,-25l-222 0c-7.33465,0 -11.6654,-3.66535 -13,-11 -14,-88 -43.6654,-156.165 -89,-204.5 -45.3346,-48.3346 -111.335,-83.8346 -198,-106.5 -23.3346,-6 -45.6654,-2.83465 -67,9.5 -21.3346,12.3346 -35.6654,30.1654 -43,53.5l-1 3c-6.66535,21.3346 -4.5,41.6654 6.5,61 11,19.3346 27.5,32.3346 49.5,39 42.6654,13.3346 75.3346,31 98,53 22.6654,22 38.3346,52.6654 47,92 1.33465,7.33465 -1.66535,11 -9,11l-269 0c-23.3346,0 -43.3346,8.33465 -60,25 -16.6654,16.6654 -25,36.6654 -25,60 0,23.3346 8.33465,43.3346 25,60 16.6654,16.6654 36.6654,25 60,25l279 0c7.33465,0 11,3.66535 11,11l0 93c0,7.33465 -3.66535,11 -11,11 -63.3346,-2.66535 -120,-4.33465 -170,-5 -23.3346,0 -43.1654,8.33465 -59.5,25 -16.3346,16.6654 -24.5,36.6654 -24.5,60 0,23.3346 8.33465,43.3346 25,60 16.6654,16.6654 36.6654,25.3346 60,26 204.665,2.66535 363,20.3346 475,53 22,6.66535 43.5,4.66535 64.5,-6 21,-10.6654 35.1654,-27 42.5,-49l1 -3c7.33465,-22.6654 6,-44.8346 -4,-66.5 -10,-21.6654 -26.3346,-35.8346 -49,-42.5 -48,-14 -96,-24.6654 -144,-32 -7.33465,-1.33465 -11,-5.66535 -11,-13l0 -111c0,-7.33465 3.66535,-11 11,-11l214 0z"
   id="glyph5" />
   <glyph
   unicode="フ"
   horiz-adv-x="1000"
   d="M815 730c23.3346,0 43.3346,-8.33465 60,-25 16.6654,-16.6654 24.6654,-36.6654 24,-60 -7.33465,-209.335 -59.5,-369 -156.5,-479 -97,-110 -242.835,-179 -437.5,-207 -24,-3.33465 -45.6654,2.16535 -65,16.5 -19.3346,14.3346 -31.6654,33.5 -37,57.5l-1 9c-4.66535,22 -0.165354,42.1654 13.5,60.5 13.6654,18.3346 31.8346,29.1654 54.5,32.5 131.335,19.3346 230,60.1654 296,122.5 66,62.3346 107.335,155.835 124,280.5 0.665354,2.66535 -0.165354,5.33465 -2.5,8 -2.33465,2.66535 -4.83465,4 -7.5,4l-485 0c-23.3346,0 -43.3346,8.33465 -60,25 -16.6654,16.6654 -25,36.6654 -25,60l0 10c0,23.3346 8.33465,43.3346 25,60 16.6654,16.6654 36.6654,25 60,25l620 0z"
   id="glyph6" />
   <glyph
   unicode="ャ"
   horiz-adv-x="1000"
   d="M755 554c20.6654,4 40,0 58,-12 18,-12 29,-28.6654 33,-50 10,-57.3346 6.33465,-107.665 -11,-151 -22,-54 -51,-105.665 -87,-155 -13.3346,-18.6654 -31.8346,-29.1654 -55.5,-31.5 -23.6654,-2.33465 -44.5,3.5 -62.5,17.5 -18,12.6654 -28.3346,30 -31,52 -2.66535,22 2.66535,42 16,60 19.3346,26.6654 37.3346,55 54,85 0.665354,2 0.334646,4 -1,6 -1.33465,2 -3,2.66535 -5,2l-164 -32c-7.33465,-1.33465 -10.3346,-5.66535 -9,-13l49 -284c4,-22.6654 -0.665354,-43.6654 -14,-63 -13.3346,-19.3346 -31.6654,-31 -55,-35l-2 0c-22.6654,-4 -43.8346,0.834646 -63.5,14.5 -19.6654,13.6654 -31.5,32.1654 -35.5,55.5l-48 279c-1.33465,7.33465 -5.66535,10.3346 -13,9l-71 -14c-20.6654,-4 -40,0 -58,12 -18,12 -29,28.6654 -33,50 -4,21.3346 0.165354,41 12.5,59 12.3346,18 29.1654,29 50.5,33l72 14c7.33465,1.33465 10.3346,5.66535 9,13l-7 45c-4,22.6654 0.665354,43.6654 14,63 13.3346,19.3346 31.6654,31 55,35l2 0c22.6654,4 43.8346,-0.834646 63.5,-14.5 19.6654,-13.6654 31.5,-32.1654 35.5,-55.5l7 -40c1.33465,-7.33465 5.66535,-10.3346 13,-9l282 55z"
   id="glyph7" />
   <glyph
   unicode="レ"
   horiz-adv-x="1000"
   d="M861 482c22,-9.33465 37.6654,-24.8346 47,-46.5 9.33465,-21.6654 9.33465,-43.1654 0,-64.5 -64,-146.665 -148,-252 -252,-316 -104,-64 -244.335,-98.6654 -421,-104 -23.3346,-0.665354 -43.3346,7.33465 -60,24 -16.6654,16.6654 -25,36.6654 -25,60l0 650c0,23.3346 8.33465,43.3346 25,60 16.6654,16.6654 36.6654,25 60,25l35 0c23.3346,0 43.3346,-8.33465 60,-25 16.6654,-16.6654 25,-36.6654 25,-60l0 -533c0,-3.33465 1.16535,-6 3.5,-8 2.33465,-2 4.83465,-2.66535 7.5,-2 92.6654,14.6654 167.165,45.1654 223.5,91.5 56.3346,46.3346 104.5,115.165 144.5,206.5 9.33465,21.3346 24.6654,36.8346 46,46.5 21.3346,9.66535 42.6654,10.1654 64,1.5l17 -6z"
   id="glyph8" />
   <glyph
   unicode="ン"
   horiz-adv-x="1000"
   d="M187 564c-21.3346,10 -35.5,25.8346 -42.5,47.5 -7,21.6654 -5.16535,42.8346 5.5,63.5l10 20c11.3346,21.3346 28.3346,35.8346 51,43.5 22.6654,7.66535 45,6.5 67,-3.5 36,-16.6654 89.3346,-42.3346 160,-77 21.3346,-10.6654 35.5,-26.8346 42.5,-48.5 7,-21.6654 4.83465,-42.8346 -6.5,-63.5l-13 -22c-11.3346,-20.6654 -28.3346,-34.5 -51,-41.5 -22.6654,-7 -44.6654,-5.16535 -66,5.5 -18,9.33465 -70.3346,34.6654 -157,76zm670 84c23.3346,-5.33465 41.5,-17.8346 54.5,-37.5 13,-19.6654 16.5,-40.8346 10.5,-63.5 -42,-165.335 -118,-294.5 -228,-387.5 -110,-93 -259.665,-152.835 -449,-179.5 -23.3346,-3.33465 -44.6654,2.33465 -64,17 -19.3346,14.6654 -31,33.6654 -35,57l-2 17c-3.33465,22.6654 1.66535,43.3346 15,62 13.3346,18.6654 31.6654,29.6654 55,33 146.665,23.3346 261.335,68.1654 344,134.5 82.6654,66.3346 143,161.835 181,286.5 7.33465,22.6654 20.8346,40.3346 40.5,53 19.6654,12.6654 40.8346,16.6654 63.5,12l14 -4z"
   id="glyph9" />
   <glyph
   unicode="ー"
   horiz-adv-x="1000"
   d="M835 455c23.3346,0 43.3346,-8.33465 60,-25 16.6654,-16.6654 25,-36.6654 25,-60l0 -20c0,-23.3346 -8.33465,-43.3346 -25,-60 -16.6654,-16.6654 -36.6654,-25 -60,-25l-670 0c-23.3346,0 -43.3346,8.33465 -60,25 -16.6654,16.6654 -25,36.6654 -25,60l0 20c0,23.3346 8.33465,43.3346 25,60 16.6654,16.6654 36.6654,25 60,25l670 0z"
   id="glyph10" />
  </font>
  <font
   id="FontID1"
   horiz-adv-x="868"
   font-variant="normal"
   style="fill-rule:nonzero"
   font-style="normal"
   font-weight="400"
   horiz-origin-x="0"
   horiz-origin-y="0"
   vert-origin-x="512"
   vert-origin-y="768"
   vert-adv-y="1024">
	<font-face
   font-family="Mochiy Pop P One"
   id="font-face10">
		<font-face-src>
			<font-face-name
   name="Mochiy Pop P One Regular" />
		</font-face-src>
	</font-face>
   <missing-glyph
   id="missing-glyph10"><path
     d="M0 0z"
     id="path10" /></missing-glyph>
   <glyph
   unicode="ォ"
   horiz-adv-x="750"
   d="M123 -13l-96 123c22,15.3346 46.5,34.3346 73.5,57 27,22.6654 54.6654,47.3346 83,74 28.3346,26.6654 55.8346,53.8346 82.5,81.5 26.6654,27.6654 50.3346,53.8346 71,78.5 -54.6654,-4 -106,-10 -154,-18 -48,-8 -88,-17.3346 -120,-28l-37 142c35.3346,10.6654 75.1654,19.6654 119.5,27 44.3346,7.33465 91,12.8346 140,16.5 49,3.66535 97.8346,6.16535 146.5,7.5 -2.66535,40 -5.66535,78.3346 -9,115l147 8c2.66535,-17.3346 5,-36.6654 7,-58 2,-21.3346 3.66535,-43.6654 5,-67 53.3346,-2.66535 100.665,-6.66535 142,-12l-22 -148c-30,7.33465 -67.6654,12.6654 -113,16 1.33465,-37.3346 2.16535,-75.1654 2.5,-113.5 0.334646,-38.3346 0.5,-75.5 0.5,-111.5 0,-40.6654 -0.165354,-78.8346 -0.5,-114.5 -0.334646,-35.6654 -1.16535,-66.5 -2.5,-92.5l-156 -1c2.66535,39.3346 4.66535,83 6,131 1.33465,48 2,99 2,153 0,16 0,31.6654 0,47 -31.3346,-38 -66,-76.8346 -104,-116.5 -38,-39.6654 -75.8346,-76.6654 -113.5,-111 -37.6654,-34.3346 -71.1654,-62.8346 -100.5,-85.5z"
   id="glyph11" />
   <glyph
   unicode="ジ"
   horiz-adv-x="922"
   d="M842 697c-6.66535,5.33465 -16.1654,14.1654 -28.5,26.5 -12.3346,12.3346 -24.1654,25.6654 -35.5,40 -11.3346,14.3346 -19.6654,26.5 -25,36.5l60 46c9.33465,-14 21.6654,-29.6654 37,-47 15.3346,-17.3346 30.6654,-31.6654 46,-43l-54 -59zm-125 -25c-6,6 -14.3346,16.6654 -25,32 -10.6654,15.3346 -20.8346,31.5 -30.5,48.5 -9.66535,17 -16.1654,31.1654 -19.5,42.5l69 32c6,-15.3346 15.1654,-33 27.5,-53 12.3346,-20 25.1654,-37 38.5,-51l-60 -51zm-323 -157c-29.3346,27.3346 -67.1654,54.3346 -113.5,81 -46.3346,26.6654 -94.5,51 -144.5,73l55 146c35.3346,-12.6654 70.8346,-28.1654 106.5,-46.5 35.6654,-18.3346 69.1654,-37.5 100.5,-57.5 31.3346,-20 57,-39 77,-57l-81 -139zm-107 -212c-22.6654,12.6654 -49.8346,25.3346 -81.5,38 -31.6654,12.6654 -63.5,24 -95.5,34 -32,10 -60,17.3346 -84,22l47 154c28.6654,-6 59.3346,-14.1654 92,-24.5 32.6654,-10.3346 65,-21.8346 97,-34.5 32,-12.6654 61.3346,-25.6654 88,-39l-63 -150zm597 56c-28.6654,-44 -62.8346,-86.5 -102.5,-127.5 -39.6654,-41 -82.3346,-79.1654 -128,-114.5 -45.6654,-35.3346 -92.3346,-66.1654 -140,-92.5 -47.6654,-26.3346 -94.1654,-46.8346 -139.5,-61.5 -45.3346,-14.6654 -87.3346,-22 -126,-22 -52.6654,0 -98.5,16.3346 -137.5,49 -39,32.6654 -66.5,87.3346 -82.5,164l141 65c9.33465,-40 22.3346,-68.6654 39,-86 16.6654,-17.3346 38.6654,-26 66,-26 17.3346,0 41.1654,5.5 71.5,16.5 30.3346,11 64.1654,27.1654 101.5,48.5 37.3346,21.3346 75.6654,47.6654 115,79 39.3346,31.3346 77.3346,67.3346 114,108 36.6654,40.6654 69.3346,85.3346 98,134l110 -134z"
   id="glyph12" />
   <glyph
   unicode="ス"
   horiz-adv-x="885"
   d="M136 -44l-110 148c56.6654,34.6654 110.5,71 161.5,109 51,38 98,76.1654 141,114.5 43,38.3346 80.3346,74.6654 112,109 31.6654,34.3346 56.1654,65 73.5,92 17.3346,27 26,48.5 26,64.5 0,13.3346 -5.83465,22.8346 -17.5,28.5 -11.6654,5.66535 -27.8346,8.5 -48.5,8.5 -28.6654,0 -64.1654,-4.33465 -106.5,-13 -42.3346,-8.66535 -87,-19.5 -134,-32.5 -47,-13 -92.1654,-26.1654 -135.5,-39.5l-34 161c82.6654,22.6654 162.5,42.1654 239.5,58.5 77,16.3346 151.835,24.5 224.5,24.5 38,0 72,-4.16535 102,-12.5 30,-8.33465 53.6654,-22.8346 71,-43.5 17.3346,-20.6654 26,-49.6654 26,-87 0,-43.3346 -13.8346,-91.3346 -41.5,-144 -27.6654,-52.6654 -63.5,-106 -107.5,-160 44,-33.3346 90.5,-73.5 139.5,-120.5 49,-47 96.1654,-96.8346 141.5,-149.5l-138 -108c-35.3346,46 -75,92 -119,138 -44,46 -86.6654,87.6654 -128,125 -54.6654,-55.3346 -112,-106.835 -172,-154.5 -60,-47.6654 -115.335,-86.5 -166,-116.5z"
   id="glyph13" />
   <glyph
   unicode="タ"
   horiz-adv-x="855"
   d="M177 293l-151 41c6,45.3346 15.5,92.3346 28.5,141 13,48.6654 28.6654,96.5 47,143.5 18.3346,47 38.5,91 60.5,132 22,41 45,76.8346 69,107.5l151 -54c-18.6654,-23.3346 -36,-48 -52,-74 40,16.6654 81.1654,29.3346 123.5,38 42.3346,8.66535 83.1654,13 122.5,13 46.6654,0 89,-6.16535 127,-18.5 38,-12.3346 68.5,-31.5 91.5,-57.5 23,-26 34.5,-59.6654 34.5,-101 0,-38.6654 -9.33465,-85 -28,-139 -18.6654,-54 -45,-112 -79,-174 -34,-62 -74.8346,-124.835 -122.5,-188.5 -47.6654,-63.6654 -100.5,-124.165 -158.5,-181.5l-142 91c40,38.6654 76.5,78 109.5,118 33,40 63.1654,79.3346 90.5,118 -16,15.3346 -36.8346,30.6654 -62.5,46 -25.6654,15.3346 -54.3346,30.5 -86,45.5 -31.6654,15 -64.1654,28.8346 -97.5,41.5l78 127c16.6654,-2.66535 36.3346,-8.16535 59,-16.5 22.6654,-8.33465 46.3346,-18.3346 71,-30 24.6654,-11.6654 47.8346,-24 69.5,-37 21.6654,-13 39.5,-25.8346 53.5,-38.5 24,44 42.1654,81.8346 54.5,113.5 12.3346,31.6654 18.5,53.5 18.5,65.5 0,19.3346 -9,33 -27,41 -18,8 -41.6654,12 -71,12 -30,0 -63.5,-3.5 -100.5,-10.5 -37,-7 -74.6654,-16.3346 -113,-28 -38.3346,-11.6654 -74.1654,-24.1654 -107.5,-37.5 -27.3346,-76.6654 -47.6654,-159.665 -61,-249z"
   id="glyph14" />
   <glyph
   unicode="チ"
   horiz-adv-x="947"
   d="M62 236l-36 144c40.6654,16.6654 88,31.5 142,44.5 54,13 111.335,24 172,33 60.6654,9 121.665,15.5 183,19.5 -8,28.6654 -19.1654,54.8346 -33.5,78.5 -14.3346,23.6654 -30.8346,44.5 -49.5,62.5 -54,-16.6654 -104.5,-35.1654 -151.5,-55.5 -47,-20.3346 -83.5,-38.5 -109.5,-54.5l-58 139c40,25.3346 85.1654,48.6654 135.5,70 50.3346,21.3346 102.5,40 156.5,56 54,16 107.335,28.5 160,37.5 52.6654,9 102,13.5 148,13.5l4 -160c-4,0.665354 -8.16535,1 -12.5,1 -4.33465,0 -8.5,0 -12.5,0 -15.3346,0 -31.5,-0.834646 -48.5,-2.5 -17,-1.66535 -34.1654,-3.83465 -51.5,-6.5 41.3346,-52.6654 70,-110.665 86,-174 46,-0.665354 88.8346,-3.16535 128.5,-7.5 39.6654,-4.33465 75.1654,-10.8346 106.5,-19.5l-18 -159c-30,6.66535 -62.1654,12 -96.5,16 -34.3346,4 -70.1654,6.66535 -107.5,8 -6.66535,-67.3346 -27.5,-134.835 -62.5,-202.5 -35,-67.6654 -86.1654,-131.5 -153.5,-191.5l-150 80c61.3346,52 107.665,104.665 139,158 31.3346,53.3346 51.3346,104.665 60,154 -57.3346,-2.66535 -114.335,-7.83465 -171,-15.5 -56.6654,-7.66535 -110.5,-17 -161.5,-28 -51,-11 -96.8346,-23.8346 -137.5,-38.5z"
   id="glyph15" />
   <glyph
   unicode="フ"
   horiz-adv-x="891"
   d="M424 -67l-144 125c67.3346,41.3346 126.335,85.6654 177,133 50.6654,47.3346 93,94 127,140 34,46 59.5,87.8346 76.5,125.5 17,37.6654 25.5,67.5 25.5,89.5 0,26 -9.83465,43.1654 -29.5,51.5 -19.6654,8.33465 -41.8346,12.5 -66.5,12.5 -29.3346,0 -67.3346,-2.16535 -114,-6.5 -46.6654,-4.33465 -102.5,-13.6654 -167.5,-28 -65,-14.3346 -139.5,-36.1654 -223.5,-65.5l-59 167c61.3346,21.3346 123.665,39.5 187,54.5 63.3346,15 125.665,26.5 187,34.5 61.3346,8 118.665,12 172,12 34,0 68.1654,-2.16535 102.5,-6.5 34.3346,-4.33465 66,-12.8346 95,-25.5 29,-12.6654 52.1654,-31.8346 69.5,-57.5 17.3346,-25.6654 26,-59.5 26,-101.5 0,-32 -7.16535,-72.6654 -21.5,-122 -14.3346,-49.3346 -38.3346,-103.665 -72,-163 -33.6654,-59.3346 -78.8346,-120.665 -135.5,-184 -56.6654,-63.3346 -127.335,-125 -212,-185z"
   id="glyph16" />
   <glyph
   unicode="ャ"
   horiz-adv-x="820"
   d="M428 -83c-27.3346,32.6654 -54.3346,70.5 -81,113.5 -26.6654,43 -52.1654,88.6654 -76.5,137 -24.3346,48.3346 -46.5,97.1654 -66.5,146.5 -16,-8.66535 -32.3346,-17.6654 -49,-27 -16.6654,-9.33465 -33.3346,-19.3346 -50,-30l-79 130c21.3346,12.6654 42.6654,24.8346 64,36.5 21.3346,11.6654 42,22.5 62,32.5 -8.66535,28.6654 -16.3346,56.1654 -23,82.5 -6.66535,26.3346 -11.6654,50.8346 -15,73.5l143 51c2.66535,-21.3346 6.83465,-44.1654 12.5,-68.5 5.66535,-24.3346 12.5,-49.5 20.5,-75.5 66.6654,26.6654 125.835,46.6654 177.5,60 51.6654,13.3346 93.3346,22.1654 125,26.5 31.6654,4.33465 50.8346,6.5 57.5,6.5 43.3346,0 78.1654,-11.8346 104.5,-35.5 26.3346,-23.6654 39.5,-55.1654 39.5,-94.5 0,-17.3346 -4.66535,-42.1654 -14,-74.5 -9.33465,-32.3346 -26.1654,-69.8346 -50.5,-112.5 -24.3346,-42.6654 -58.5,-88 -102.5,-136l-129 87c24,22.6654 46,46.6654 66,72 20,25.3346 36,48.8346 48,70.5 12,21.6654 18,37.8346 18,48.5 0,14 -8.33465,21 -25,21 -6,0 -17.5,-2 -34.5,-6 -17,-4 -37.1654,-9.33465 -60.5,-16 -22.6654,-6.66535 -48.3346,-14.6654 -77,-24 -28.6654,-9.33465 -59.3346,-21 -92,-35 20.6654,-51.3346 43.6654,-101.665 69,-151 25.3346,-49.3346 51.1654,-94.1654 77.5,-134.5 26.3346,-40.3346 51.8346,-72.8346 76.5,-97.5l-136 -77z"
   id="glyph17" />
   <glyph
   unicode="レ"
   horiz-adv-x="832"
   d="M244 -47c-48,0 -86.5,9.33465 -115.5,28 -29,18.6654 -50.8346,43.5 -65.5,74.5 -14.6654,31 -24.5,65.3346 -29.5,103 -5,37.6654 -7.5,75.5 -7.5,113.5 0,54 2.83465,112.165 8.5,174.5 5.66535,62.3346 13,124.835 22,187.5 9,62.6654 18.8346,120.665 29.5,174l169 -28c-13.3346,-62 -24.6654,-123.835 -34,-185.5 -9.33465,-61.6654 -16.3346,-120.5 -21,-176.5 -4.66535,-56 -7,-107 -7,-153 0,-20 1.16535,-41 3.5,-63 2.33465,-22 8.66535,-40.6654 19,-56 10.3346,-15.3346 27.1654,-23 50.5,-23 14.6654,0 38,4.83465 70,14.5 32,9.66535 70.1654,25 114.5,46 44.3346,21 92.1654,48.1654 143.5,81.5 51.3346,33.3346 103.335,73.3346 156,120l56 -177c-46,-40.6654 -94.3346,-76.8346 -145,-108.5 -50.6654,-31.6654 -101.335,-58.3346 -152,-80 -50.6654,-21.6654 -98.6654,-38.1654 -144,-49.5 -45.3346,-11.3346 -85.6654,-17 -121,-17z"
   id="glyph18" />
   <glyph
   unicode="ン"
   horiz-adv-x="924"
   d="M304 449c-32.6654,43.3346 -69.8346,83 -111.5,119 -41.6654,36 -84.1654,66.3346 -127.5,91l115 122c41.3346,-24.6654 83.6654,-54.3346 127,-89 43.3346,-34.6654 83.3346,-75.6654 120,-123l-123 -120zm188 -430c-48.6654,-25.3346 -91,-42 -127,-50 -36,-8 -66.3346,-12 -91,-12 -130,0 -212.665,70.3346 -248,211l151 68c9.33465,-38 22.6654,-65.6654 40,-83 17.3346,-17.3346 39,-26 65,-26 10.6654,0 28.6654,3.33465 54,10 25.3346,6.66535 55.5,18.5 90.5,35.5 35,17 72.5,40.8346 112.5,71.5 40,30.6654 80,69.6654 120,117 40,47.3346 77.3346,105 112,173l127 -117 0 -1c-16,-32 -37.8346,-66.3346 -65.5,-103 -27.6654,-36.6654 -59.3346,-73.1654 -95,-109.5 -35.6654,-36.3346 -74.3346,-70.3346 -116,-102 -41.6654,-31.6654 -84.8346,-59.1654 -129.5,-82.5z"
   id="glyph19" />
   <glyph
   unicode="ー"
   horiz-adv-x="934"
   d="M60 251l-34 173c35.3346,9.33465 76.8346,17.5 124.5,24.5 47.6654,7 99.1654,13.1654 154.5,18.5 55.3346,5.33465 111.835,9.33465 169.5,12 57.6654,2.66535 113.835,4 168.5,4 51.3346,0 99.6654,-1.33465 145,-4 45.3346,-2.66535 85.3346,-6.66535 120,-12l-19 -176c-30,5.33465 -65.1654,9.16535 -105.5,11.5 -40.3346,2.33465 -83.8346,3.5 -130.5,3.5 -52,0 -105.835,-1.33465 -161.5,-4 -55.6654,-2.66535 -110.335,-6.5 -164,-11.5 -53.6654,-5 -103.5,-10.8346 -149.5,-17.5 -46,-6.66535 -85.3346,-14 -118,-22z"
   id="glyph20" />
  </font>
  <font
   id="FontID0"
   horiz-adv-x="660"
   font-variant="normal"
   style="fill-rule:nonzero"
   font-weight="900"
   horiz-origin-x="0"
   horiz-origin-y="0"
   vert-origin-x="512"
   vert-origin-y="768"
   vert-adv-y="1024">
	<font-face
   font-family="Rounded-X M+ 2c black"
   id="font-face20">
		<font-face-src>
			<font-face-name
   name="Rounded-X M+ 2c black" />
		</font-face-src>
	</font-face>
   <missing-glyph
   id="missing-glyph20"><path
     d="M0 0z"
     id="path20" /></missing-glyph>
   <glyph
   unicode="校"
   horiz-adv-x="1000"
   d="M841 585c-2,0 -3.33465,-0.834646 -4,-2.5 -0.665354,-1.66535 -0.334646,-2.83465 1,-3.5 32.6654,-28.6654 60.6654,-55 84,-79 16.6654,-16.6654 25.1654,-36.8346 25.5,-60.5 0.334646,-23.6654 -7.83465,-44.1654 -24.5,-61.5l-34 -34c-3.33465,-3.33465 -7,-9.66535 -11,-19 -26,-67.3346 -57,-124.335 -93,-171 -4.66535,-5.33465 -3.66535,-10 3,-14 32,-17.3346 71.3346,-34.6654 118,-52 20.6654,-8 35.8346,-22 45.5,-42 9.66535,-20 11.1654,-40.3346 4.5,-61 -7.33465,-21.3346 -20.8346,-37 -40.5,-47 -19.6654,-10 -39.8346,-11.3346 -60.5,-4 -72,26 -135.335,57 -190,93 -4.66535,4 -10.6654,3.66535 -18,-1 -54,-35.3346 -120,-66.3346 -198,-93 -21.3346,-7.33465 -42.3346,-6.16535 -63,3.5 -20.6654,9.66535 -35.6654,25.1654 -45,46.5 -8.66535,20 -8.5,39.6654 0.5,59 9,19.3346 23.5,32.6654 43.5,40 56,20.6654 102,41 138,61 6,3.33465 6.66535,8 2,14 -32,42.6654 -60,94 -84,154 -2,2 -3.33465,2.66535 -4,2 -2.66535,-2 -5.33465,-3.33465 -8,-4 -6,-1.33465 -9,-4.66535 -9,-10 2,-28 -9,-50 -33,-66 -14,-9.33465 -28.8346,-11.5 -44.5,-6.5 -15.6654,5 -26.8346,15.1654 -33.5,30.5 -0.665354,2.66535 -2.33465,6.83465 -5,12.5 -2.66535,5.66535 -4.66535,9.83465 -6,12.5 -0.665354,0.665354 -1.5,1 -2.5,1 -1,0 -1.5,-0.665354 -1.5,-2l0 -293c0,-21.3346 -7.66535,-39.8346 -23,-55.5 -15.3346,-15.6654 -33.6654,-23.5 -55,-23.5 -21.3346,0 -39.8346,7.83465 -55.5,23.5 -15.6654,15.6654 -23.5,34.1654 -23.5,55.5l0 211c0,1.33465 -0.334646,2 -1,2 -0.665354,0 -1.33465,-0.334646 -2,-1 -4.66535,-14.6654 -11.3346,-31.6654 -20,-51 -6.66535,-14.6654 -18,-21.1654 -34,-19.5 -16,1.66535 -26.6654,10.1654 -32,25.5l-7 23c-16,49.3346 -10.6654,99.6654 16,151 29.3346,57.3346 50.3346,117 63,179 1.33465,6 -1.33465,9 -8,9 -20,0 -37.1654,7.16535 -51.5,21.5 -14.3346,14.3346 -21.5,31.5 -21.5,51.5 0,20.6654 7.16535,38.1654 21.5,52.5 14.3346,14.3346 31.8346,21.5 52.5,21.5l13 0c7.33465,0 11,3.66535 11,11l0 57c0,21.3346 7.83465,39.8346 23.5,55.5 15.6654,15.6654 34.1654,23.5 55.5,23.5 21.3346,0 39.6654,-7.83465 55,-23.5 15.3346,-15.6654 23,-34.1654 23,-55.5l0 -58c0,-6.66535 3.33465,-10 10,-10 10,0 20.3346,-2.33465 31,-7 2,-0.665354 3.83465,-0.334646 5.5,1 1.66535,1.33465 2.5,3 2.5,5 0.665354,19.3346 8.33465,35.6654 23,49 14.6654,13.3346 31.6654,20 51,20l131 0c7.33465,0 11,4 11,12l0 3c0,23.3346 8.16535,43 24.5,59 16.3346,16 35.8346,24 58.5,24l15 0c23.3346,0 43,-8 59,-24 16,-16 24,-35.6654 24,-59l0 -3c0,-8 3.66535,-12 11,-12l136 0c20.6654,0 38.1654,-7 52.5,-21 14.3346,-14 21.5,-31.3346 21.5,-52 0,-20.6654 -7.16535,-38.1654 -21.5,-52.5 -14.3346,-14.3346 -31.8346,-21.5 -52.5,-21.5l-46 0zm-370 -8c1.33465,1.33465 1.33465,3 0,5 -1.33465,2 -3,3 -5,3l-49 0c-10,0 -20.3346,2.33465 -31,7 -5.33465,2.66535 -8,0.665354 -8,-6l0 -13c0,-15.3346 -5.66535,-28.5 -17,-39.5 -11.3346,-11 -24.6654,-16.5 -40,-16.5 -1.33465,0 -2.5,-0.665354 -3.5,-2 -1,-1.33465 -1.16535,-2.66535 -0.5,-4 0.665354,-1.33465 12,-23 34,-65 2,-4.66535 4.66535,-4 8,2 5.33465,11.3346 12.3346,21 21,29 34,32 64.3346,65.3346 91,100zm352 -209c1.33465,-0.665354 2.33465,-0.165354 3,1.5 0.665354,1.66535 0.334646,3.16535 -1,4.5 -30,30 -57.3346,56 -82,78 -16.6654,15.3346 -25.3346,34.1654 -26,56.5 -0.665354,22.3346 6.66535,41.8346 22,58.5l10 10c1.33465,1.33465 1.5,3 0.5,5 -1,2 -2.5,3 -4.5,3l-207 0c-2,0 -3.16535,-0.834646 -3.5,-2.5 -0.334646,-1.66535 0.165354,-2.83465 1.5,-3.5l20 -16c19.3346,-14.6654 31.1654,-33.5 35.5,-56.5 4.33465,-23 -0.834646,-43.8346 -15.5,-62.5 -20,-24.6654 -41,-47.3346 -63,-68 -0.665354,-0.665354 -0.665354,-1.5 0,-2.5 0.665354,-1 1.33465,-1.5 2,-1.5 20.6654,4.66535 40.3346,2 59,-8 18.6654,-10 32.6654,-25 42,-45 10.6654,-22 21.6654,-41.6654 33,-59 1.33465,-2.66535 3.5,-3.83465 6.5,-3.5 3,0.334646 5.16535,1.5 6.5,3.5 13.3346,18.6654 25.3346,38 36,58 10.6654,21.3346 26.6654,37.3346 48,48 21.3346,10.6654 43,12.6654 65,6l12 -4z"
   id="glyph21" />
   <glyph
   unicode="生"
   horiz-adv-x="1000"
   d="M865 81c20.6654,0 38.5,-7.5 53.5,-22.5 15,-15 22.5,-32.8346 22.5,-53.5 0,-20.6654 -7.5,-38.5 -22.5,-53.5 -15,-15 -32.8346,-22.5 -53.5,-22.5l-730 0c-20.6654,0 -38.5,7.5 -53.5,22.5 -15,15 -22.5,32.8346 -22.5,53.5 0,20.6654 7.5,38.5 22.5,53.5 15,15 32.8346,22.5 53.5,22.5l275 0c8,0 12,3.66535 12,11l0 144c0,7.33465 -4,11 -12,11l-166 0c-16.6654,0 -31.1654,6.16535 -43.5,18.5 -12.3346,12.3346 -18.5,27.1654 -18.5,44.5 0,5.33465 -2.66535,9 -8,11l-68 30c-21.3346,9.33465 -36.3346,24.8346 -45,46.5 -8.66535,21.6654 -8.66535,43.1654 0,64.5 31.3346,79.3346 58.3346,164 81,254 6,22.6654 18.8346,40.3346 38.5,53 19.6654,12.6654 40.8346,17 63.5,13l6 -1c22,-4 39.1654,-15 51.5,-33 12.3346,-18 16.1654,-37.3346 11.5,-58 -1.33465,-8 1.33465,-12 8,-12l89 0c2.66535,0 5.33465,1.33465 8,4 2.66535,2.66535 4,5.33465 4,8l0 37c0,23.3346 8.16535,43.1654 24.5,59.5 16.3346,16.3346 35.8346,24.5 58.5,24.5l19 0c22.6654,0 42.3346,-8.16535 59,-24.5 16.6654,-16.3346 25,-36.1654 25,-59.5l0 -37c0,-8 3.66535,-12 11,-12l217 0c21.3346,0 39.3346,-7.33465 54,-22 14.6654,-14.6654 22,-32.3346 22,-53 0,-20.6654 -7.33465,-38.5 -22,-53.5 -14.6654,-15 -32.6654,-22.5 -54,-22.5l-217 0c-7.33465,0 -11,-4 -11,-12l0 -110c0,-7.33465 3.66535,-11 11,-11l170 0c20.6654,0 38.1654,-7 52.5,-21 14.3346,-14 21.5,-31.3346 21.5,-52 0,-20.6654 -7.16535,-38.1654 -21.5,-52.5 -14.3346,-14.3346 -31.8346,-21.5 -52.5,-21.5l-170 0c-7.33465,0 -11,-3.66535 -11,-11l0 -144c0,-7.33465 3.66535,-11 11,-11l246 0zm-443 324l0 110c0,3.33465 -1.33465,6.16535 -4,8.5 -2.66535,2.33465 -5.33465,3.5 -8,3.5l-131 0c-7.33465,0 -12.3346,-3.66535 -15,-11 -9.33465,-29.3346 -22.6654,-66.6654 -40,-112 -0.665354,-2.66535 -0.334646,-5 1,-7 1.33465,-2 3.33465,-3 6,-3l179 0c8,0 12,3.66535 12,11z"
   id="glyph22" />
   <glyph
   unicode="習"
   horiz-adv-x="1000"
   d="M853 801c23.3346,0 43,-8.16535 59,-24.5 16,-16.3346 24,-35.8346 24,-58.5l0 -245c0,-47.3346 -7.5,-76.3346 -22.5,-87 -15,-10.6654 -56.5,-16 -124.5,-16 -32,0 -59,0.334646 -81,1 -10.6654,0 -19.5,3.66535 -26.5,11 -7,7.33465 -11.1654,16.3346 -12.5,27 0,3.33465 -1.66535,4.33465 -5,3 -8.66535,-4 -21.1654,-9.33465 -37.5,-16 -16.3346,-6.66535 -26.5,-10.6654 -30.5,-12 -2.66535,-1.33465 -6.66535,-2.66535 -12,-4 -6,-1.33465 -9,-5 -9,-11 0,-8.66535 -0.665354,-15 -2,-19 -1.33465,-6.66535 1,-10 7,-10l224 0c22.6654,0 42.1654,-8 58.5,-24 16.3346,-16 24.5,-35.6654 24.5,-59l0 -260c0,-23.3346 -8.16535,-43 -24.5,-59 -16.3346,-16 -35.8346,-24 -58.5,-24l-72 0c-6.66535,0 -12.6654,2.66535 -18,8 -5.33465,5.33465 -8,11.3346 -8,18 0,2.66535 -1.33465,4 -4,4l-395 0c-2,0 -3,-1.33465 -3,-4 0,-6.66535 -2.66535,-12.6654 -8,-18 -5.33465,-5.33465 -11.3346,-8 -18,-8l-72 0c-22.6654,0 -42.1654,8 -58.5,24 -16.3346,16 -24.5,35.6654 -24.5,59l0 260c0,23.3346 8.16535,43 24.5,59 16.3346,16 35.8346,24 58.5,24l163 0c6.66535,0 11,3.33465 13,10 0,0.665354 0.334646,1.83465 1,3.5 0.665354,1.66535 1,2.83465 1,3.5 0,0.665354 0,1 0,1l1 2c1.33465,6.66535 -1.33465,10 -8,10l-39 0c-31.3346,0 -58,0.334646 -80,1 -10.6654,0 -19.6654,3.66535 -27,11 -7.33465,7.33465 -11.6654,16.3346 -13,27 0,3.33465 -1.66535,4.33465 -5,3 -8.66535,-4 -21.1654,-9.33465 -37.5,-16 -16.3346,-6.66535 -26.5,-10.6654 -30.5,-12 -16.6654,-6.66535 -33,-6 -49,2 -16,8 -26.6654,20.6654 -32,38 -5.33465,18 -3.83465,35.1654 4.5,51.5 8.33465,16.3346 21.1654,27.8346 38.5,34.5 3.33465,1.33465 11.1654,4.33465 23.5,9 12.3346,4.66535 21.8346,8.33465 28.5,11 6,3.33465 6.66535,6.66535 2,10 -32,22 -49,33.6654 -51,35 -15.3346,10.6654 -24,25.3346 -26,44 -2,18.6654 3.66535,34.6654 17,48l4 3c0.665354,0.665354 0.665354,1.5 0,2.5 -0.665354,1 -1.33465,1.5 -2,1.5 -9.33465,0 -17.3346,3.33465 -24,10 -6.66535,6.66535 -10,14.6654 -10,24l0 29c0,17.3346 6.16535,32.3346 18.5,45 12.3346,12.6654 27.1654,19 44.5,19l270 0c22.6654,0 42.1654,-8.16535 58.5,-24.5 16.3346,-16.3346 24.5,-35.8346 24.5,-58.5l0 -245 0 -31c0,-7.33465 3.33465,-11.6654 10,-13l8 -1c2.66535,-0.665354 4.83465,0 6.5,2 1.66535,2 2.5,4.66535 2.5,8 -1.33465,15.3346 2.33465,29.8346 11,43.5 8.66535,13.6654 20.3346,23.1654 35,28.5 3.33465,1.33465 11.1654,4.33465 23.5,9 12.3346,4.66535 21.8346,8.33465 28.5,11 6,3.33465 6.66535,6.66535 2,10 -32,22 -49,33.6654 -51,35 -15.3346,10.6654 -24,25.3346 -26,44 -2,18.6654 3.66535,34.6654 17,48l4 3c0.665354,0.665354 0.665354,1.5 0,2.5 -0.665354,1 -1.33465,1.5 -2,1.5 -9.33465,0 -17.3346,3.33465 -24,10 -6.66535,6.66535 -10,14.6654 -10,24l0 29c0,17.3346 6.16535,32.3346 18.5,45 12.3346,12.6654 27.1654,19 44.5,19l270 0zm-539 -289l0 150c0,8 -3.66535,12 -11,12l-93 0c-1.33465,0 -2.16535,-1 -2.5,-3 -0.334646,-2 0.165354,-3.33465 1.5,-4 0.665354,-0.665354 1.33465,-1 2,-1 0.665354,0 1.33465,-0.334646 2,-1 18,-11.3346 28,-27.8346 30,-49.5 2,-21.6654 -4.66535,-40.1654 -20,-55.5l-2 -1c-0.665354,-0.665354 -0.665354,-1.5 0,-2.5 0.665354,-1 1.33465,-1.16535 2,-0.5 14.6654,6.66535 29.3346,6.33465 44,-1 14.6654,-7.33465 23.6654,-18.6654 27,-34l4 -18c0.665354,-3.33465 2.16535,-6.16535 4.5,-8.5 2.33465,-2.33465 4.83465,-2.5 7.5,-0.5 2.66535,2 4,8 4,18zm392 -440l0 12c0,7.33465 -3.66535,11 -11,11l-380 0c-7.33465,0 -11,-3.66535 -11,-11l0 -12c0,-7.33465 3.66535,-11 11,-11l380 0c7.33465,0 11,3.66535 11,11zm-11 151l-380 0c-7.33465,0 -11,-3.66535 -11,-11l0 -12c0,-8 3.66535,-12 11,-12l380 0c7.33465,0 11,4 11,12l0 12c0,7.33465 -3.66535,11 -11,11zm70 289l0 150c0,2.66535 -1.16535,5.33465 -3.5,8 -2.33465,2.66535 -5.16535,4 -8.5,4l-92 0c-1.33465,0 -2.16535,-1 -2.5,-3 -0.334646,-2 0.165354,-3.33465 1.5,-4 0,-0.665354 0.334646,-1 1,-1 0.665354,0 1.33465,-0.334646 2,-1 18,-11.3346 28.1654,-27.8346 30.5,-49.5 2.33465,-21.6654 -4.16535,-40.1654 -19.5,-55.5l-2 -1c-0.665354,-0.665354 -0.665354,-1.5 0,-2.5 0.665354,-1 1.33465,-1.16535 2,-0.5 14.6654,6.66535 29.3346,6.33465 44,-1 14.6654,-7.33465 23.6654,-18.6654 27,-34l4 -18c0.665354,-3.33465 2.16535,-6.16535 4.5,-8.5 2.33465,-2.33465 4.83465,-2.5 7.5,-0.5 2.66535,2 4,8 4,18z"
   id="glyph23" />
   <glyph
   unicode="講"
   horiz-adv-x="1000"
   d="M941 179c11.3346,0 20.6654,-3.83465 28,-11.5 7.33465,-7.66535 11,-16.8346 11,-27.5l0 -45c0,-11.3346 -3.66535,-20.6654 -11,-28 -7.33465,-7.33465 -16.6654,-11 -28,-11 -3.33465,0 -5,-1.66535 -5,-5 -0.665354,-36 -2.16535,-62.6654 -4.5,-80 -2.33465,-17.3346 -9.33465,-31.1654 -21,-41.5 -11.6654,-10.3346 -24.6654,-16.3346 -39,-18 -14.3346,-1.66535 -38.5,-2.5 -72.5,-2.5 -6.66535,0 -26.6654,0.665354 -60,2 -16.6654,0.665354 -31,7 -43,19 -12,12 -18.6654,26.3346 -20,43 -1.33465,15.3346 3.66535,28.5 15,39.5 11.3346,11 24.6654,15.8346 40,14.5l19 0c7.33465,0 12.1654,1 14.5,3 2.33465,2 3.83465,7 4.5,15 0,7.33465 -3.66535,11 -11,11l-222 0c-8,0 -12,-3.66535 -12,-11l0 -55c0,-22.6654 -7.66535,-41.8346 -23,-57.5 -15.3346,-15.6654 -34.3346,-23.5 -57,-23.5 -22.6654,0 -41.8346,7.83465 -57.5,23.5 -15.6654,15.6654 -23.5,34.8346 -23.5,57.5l0 61c0,3.33465 -1.66535,5 -5,5l-4 0c-2.66535,0.665354 -5.16535,0.165354 -7.5,-1.5 -2.33465,-1.66535 -3.5,-3.83465 -3.5,-6.5l0 -31c0,-23.3346 -8.16535,-43 -24.5,-59 -16.3346,-16 -35.8346,-24 -58.5,-24l-75 0c-2,0 -3,-1.33465 -3,-4 0,-6.66535 -2.66535,-12.6654 -8,-18 -5.33465,-5.33465 -11.3346,-8 -18,-8l-41 0c-18.6654,0 -34.3346,6.33465 -47,19 -12.6654,12.6654 -19,28.3346 -19,47l0 160c0,22.6654 8.16535,42.1654 24.5,58.5 16.3346,16.3346 36.1654,24.5 59.5,24.5l127 0c28.6654,0 51,-11.3346 67,-34 3.33465,-4.66535 8.66535,-5.66535 16,-3 4.66535,2 9.66535,3 15,3 3.33465,0 5,1.66535 5,5l0 137c0,23.3346 8.16535,43 24.5,59 16.3346,16 35.8346,24 58.5,24l107 0c7.33465,0 11,3.66535 11,11l0 2c0,8 -3.66535,12 -11,12l-168 0c-14,0 -26.1654,5 -36.5,15 -10.3346,10 -15.5,22 -15.5,36 0,14 5.16535,26.1654 15.5,36.5 10.3346,10.3346 22.5,15.5 36.5,15.5l45 0c7.33465,0 11,3.66535 11,11l0 5c0,5.33465 -2.66535,8 -8,8l-21 0c-10.6654,0 -19.8346,3.66535 -27.5,11 -7.66535,7.33465 -11.5,16.6654 -11.5,28 0,11.3346 3.83465,20.6654 11.5,28 7.66535,7.33465 16.8346,11 27.5,11l21 0c5.33465,0 8,2.66535 8,8l0 7c0,6.66535 -3.33465,10 -10,10l-22 0c-14,0 -26,5 -36,15 -10,10 -15,22 -15,36 0,14 5,26.1654 15,36.5 10,10.3346 22,15.5 36,15.5l26 0c4,0 6,2 6,6 0,12 4.16535,22.1654 12.5,30.5 8.33465,8.33465 18.5,12.5 30.5,12.5l81 0c12,0 22.1654,-4.16535 30.5,-12.5 8.33465,-8.33465 12.5,-18.5 12.5,-30.5 0,-4 2,-6 6,-6l81 0c4,0 6,2 6,6 0,12 4.16535,22.1654 12.5,30.5 8.33465,8.33465 18.5,12.5 30.5,12.5l85 0c12,0 22.1654,-4.16535 30.5,-12.5 8.33465,-8.33465 12.5,-18.5 12.5,-30.5 0,-4 2,-6 6,-6l26 0c14,0 26.1654,-5.16535 36.5,-15.5 10.3346,-10.3346 15.5,-22.5 15.5,-36.5 0,-14 -5.16535,-26 -15.5,-36 -10.3346,-10 -22.5,-15 -36.5,-15l-22 0c-6.66535,0 -10,-3.33465 -10,-10l0 -7c0,-5.33465 2.66535,-8 8,-8l22 0c10.6654,0 19.8346,-3.66535 27.5,-11 7.66535,-7.33465 11.5,-16.6654 11.5,-28 0,-11.3346 -3.83465,-20.6654 -11.5,-28 -7.66535,-7.33465 -16.8346,-11 -27.5,-11l-22 0c-5.33465,0 -8,-2.66535 -8,-8l0 -5c0,-7.33465 4,-11 12,-11l35 0c14,0 26,-5.16535 36,-15.5 10,-10.3346 15,-22.5 15,-36.5 0,-14 -5,-26 -15,-36 -10,-10 -22,-15 -36,-15l-178 0c-7.33465,0 -11,-4 -11,-12l0 -2c0,-7.33465 3.66535,-11 11,-11l112 0c23.3346,0 43,-8 59,-24 16,-16 24,-35.6654 24,-59l0 -137c0,-3.33465 1.66535,-5 5,-5zm-711 -126l0 41c0,7.33465 -3.66535,11 -11,11l-26 0c-7.33465,0 -11,-3.66535 -11,-11l0 -41c0,-7.33465 3.66535,-11 11,-11l26 0c7.33465,0 11,3.66535 11,11zm348 137l0 7c0,7.33465 -3.66535,11 -11,11l-31 0c-8,0 -12,-3.66535 -12,-11l0 -7c0,-7.33465 4,-11 12,-11l31 0c7.33465,0 11,3.66535 11,11zm0 108l0 7c0,7.33465 -3.66535,11 -11,11l-31 0c-8,0 -12,-3.66535 -12,-11l0 -7c0,-2.66535 1.33465,-5.33465 4,-8 2.66535,-2.66535 5.33465,-4 8,-4l31 0c7.33465,0 11,4 11,12zm123 245l0 2c0,7.33465 -3.66535,11 -11,11l-71 0c-7.33465,0 -11,-3.66535 -11,-11l0 -2c0,-7.33465 3.66535,-11 11,-11l71 0c7.33465,0 11,3.66535 11,11zm0 103l0 2c0,7.33465 -3.66535,11 -11,11l-71 0c-7.33465,0 -11,-3.66535 -11,-11l0 -2c0,-8 3.66535,-12 11,-12l71 0c7.33465,0 11,4 11,12zm69 -456l0 7c0,7.33465 -4,11 -12,11l-31 0c-7.33465,0 -11,-3.66535 -11,-11l0 -7c0,-7.33465 3.66535,-11 11,-11l31 0c8,0 12,3.66535 12,11zm0 108l0 7c0,7.33465 -4,11 -12,11l-31 0c-7.33465,0 -11,-3.66535 -11,-11l0 -7c0,-8 3.66535,-12 11,-12l31 0c2.66535,0 5.33465,1.33465 8,4 2.66535,2.66535 4,5.33465 4,8zm-662 488l172 0c16,0 29.6654,-5.66535 41,-17 11.3346,-11.3346 17,-25 17,-41 0,-16 -5.66535,-29.8346 -17,-41.5 -11.3346,-11.6654 -25,-17.5 -41,-17.5l-172 0c-16,0 -29.8346,5.83465 -41.5,17.5 -11.6654,11.6654 -17.5,25.5 -17.5,41.5 0,16 5.83465,29.6654 17.5,41 11.6654,11.3346 25.5,17 41.5,17zm-7 -274c-18.6654,0 -34.5,6.33465 -47.5,19 -13,12.6654 -19.5,28.3346 -19.5,47 0,18.6654 6.5,34.3346 19.5,47 13,12.6654 28.8346,19 47.5,19l181 0c18.6654,0 34.3346,-6.33465 47,-19 12.6654,-12.6654 19,-28.3346 19,-47 0,-18.6654 -6.33465,-34.3346 -19,-47 -12.6654,-12.6654 -28.3346,-19 -47,-19l-181 0zm181 -25c15.3346,0 28.5,-5.5 39.5,-16.5 11,-11 16.5,-24.1654 16.5,-39.5 0,-15.3346 -5.5,-28.5 -16.5,-39.5 -11,-11 -24.1654,-16.5 -39.5,-16.5l-167 0c-15.3346,0 -28.5,5.5 -39.5,16.5 -11,11 -16.5,24.1654 -16.5,39.5 0,15.3346 5.5,28.5 16.5,39.5 11,11 24.1654,16.5 39.5,16.5l167 0zm0 -137c15.3346,0 28.5,-5.5 39.5,-16.5 11,-11 16.5,-24.1654 16.5,-39.5 0,-15.3346 -5.5,-28.5 -16.5,-39.5 -11,-11 -24.1654,-16.5 -39.5,-16.5l-167 0c-15.3346,0 -28.5,5.5 -39.5,16.5 -11,11 -16.5,24.1654 -16.5,39.5 0,15.3346 5.5,28.5 16.5,39.5 11,11 24.1654,16.5 39.5,16.5l167 0z"
   id="glyph24" />
   <glyph
   unicode="高"
   horiz-adv-x="1000"
   d="M848 340c22.6654,0 42.1654,-8 58.5,-24 16.3346,-16 24.5,-35.6654 24.5,-59l0 -147c0,-32.6654 -0.5,-58.5 -1.5,-77.5 -1,-19 -3.83465,-36.8346 -8.5,-53.5 -4.66535,-16.6654 -10.1654,-28.5 -16.5,-35.5 -6.33465,-7 -16.8346,-13.1654 -31.5,-18.5 -14.6654,-5.33465 -30,-8.5 -46,-9.5 -16,-1 -38.3346,-1.5 -67,-1.5 -17.3346,0 -32,0.334646 -44,1 -31.3346,1.33465 -54.3346,15.6654 -69,43 -3.33465,6.66535 -8.33465,10 -15,10l-207 0c-2,0 -3,-1 -3,-3 0,-7.33465 -2.66535,-13.5 -8,-18.5 -5.33465,-5 -11.3346,-7.5 -18,-7.5l-43 0c-19.3346,0 -35.6654,6.66535 -49,20 -13.3346,13.3346 -20,29.3346 -20,48l0 98c0,22.6654 8.16535,42.1654 24.5,58.5 16.3346,16.3346 36.1654,24.5 59.5,24.5l264 0c23.3346,0 43.1654,-8.16535 59.5,-24.5 16.3346,-16.3346 24.5,-35.8346 24.5,-58.5l0 -33c0,-7.33465 3.66535,-11 11,-11 16,0 25.5,1.66535 28.5,5 3,3.33465 4.5,13.6654 4.5,31l0 110c0,7.33465 -3.66535,11 -11,11l-498 0c-7.33465,0 -11,-3.66535 -11,-11l0 -210c0,-23.3346 -8,-43 -24,-59 -16,-16 -35.6654,-24 -59,-24l-5 0c-22.6654,0 -42.1654,8 -58.5,24 -16.3346,16 -24.5,35.6654 -24.5,59l0 260c0,23.3346 8.16535,43 24.5,59 16.3346,16 35.8346,24 58.5,24l696 0zm-270 -273l0 17c0,7.33465 -3.66535,11 -11,11l-134 0c-7.33465,0 -11,-3.66535 -11,-11l0 -17c0,-7.33465 3.66535,-11 11,-11l134 0c7.33465,0 11,3.66535 11,11zm304 690c18.6654,0 34.8346,-6.83465 48.5,-20.5 13.6654,-13.6654 20.5,-29.8346 20.5,-48.5 0,-18.6654 -6.66535,-34.6654 -20,-48 -13.3346,-13.3346 -29.6654,-20 -49,-20l-764 0c-19.3346,0 -35.6654,6.66535 -49,20 -13.3346,13.3346 -20,29.3346 -20,48 0,18.6654 6.83465,34.8346 20.5,48.5 13.6654,13.6654 29.8346,20.5 48.5,20.5l280 0c6,0 9,3 9,9 0,18 6.33465,33.1654 19,45.5 12.6654,12.3346 28,18.5 46,18.5l56 0c18,0 33.3346,-6.16535 46,-18.5 12.6654,-12.3346 19,-27.5 19,-45.5 0,-6 3,-9 9,-9l280 0zm-524 -387l-98 0c-22.6654,0 -42.1654,8 -58.5,24 -16.3346,16 -24.5,35.6654 -24.5,59l0 54c0,23.3346 8.16535,43 24.5,59 16.3346,16 35.8346,24 58.5,24l480 0c22.6654,0 42.1654,-8 58.5,-24 16.3346,-16 24.5,-35.6654 24.5,-59l0 -54c0,-23.3346 -8.16535,-43 -24.5,-59 -16.3346,-16 -35.8346,-24 -58.5,-24l-382 0zm0 116l0 -17c0,-7.33465 3.66535,-11 11,-11l262 0c7.33465,0 11,3.66535 11,11l0 17c0,7.33465 -3.66535,11 -11,11l-262 0c-7.33465,0 -11,-3.66535 -11,-11z"
   id="glyph25" />
  </font>
</defs>
</svg>
